Incomplete "frame" during convert (avconv)

Questions about codecs, DVD playback, web plugins...
Forum rules
Before you post please read this

Incomplete "frame" during convert (avconv)

Postby DC80 on Fri Sep 14, 2012 3:30 pm

Hi everyone,

I would like to have some music from a DVD to mp3 so i can listen to it, however, it seems like i can't get it done using various (programs) ways. At last i'm using the command line and avconv to convert the dvd to mp3. Also this does not work properly. This is what i tried already.

- Avidemux (gtk+): This works nicely but is for some reason interrupted, it closes without any error and gets nothing done (or a empty/0kb file)
- Handbrake: Does work but has something to do with ffmpeg which is deprecated???
- K9 copy: this is/was also ffmpeg related.
- Sound converter: also ffmpeg related.

When using the above programs, they close or do nothing. So i googled for a solution and found the ffmpeg commands. Nice, but is deprecated, instead use avconv. Yay, finally a converter that works... Hmm, not really... It is talking about incomplete frames???

Please can someone help me? It is a little confusing... :S. This is the command is execute:

Code: Select all
user@desktop ~/test/VIDEO_TS $ avconv -i VTS_01_1.VOB -ac 2 -ab 128k ~/sg1_d5e1.mp3
avconv version 0.8.3-4:0.8.3-0ubuntu0.12.04.1, Copyright (c) 2000-2012 the Libav developers
  built on Jun 12 2012 16:52:09 with gcc 4.6.3
[mpeg @ 0x1e1a9c0] max_analyze_duration reached
Input #0, mpeg, from 'VTS_01_1.VOB':
  Duration: 00:26:51.88, start: 0.280000, bitrate: 5328 kb/s
    Stream #0.0[0x1e0]: Video: mpeg2video (Main), yuv420p, 720x576 [PAR 64:45 DAR 16:9], 9800 kb/s, 25 fps, 25 tbr, 90k tbn, 50 tbc
    Stream #0.1[0x82]: Audio: ac3, 48000 Hz, 5.1, s16, 448 kb/s
    Stream #0.2[0x80]: Audio: ac3, 48000 Hz, stereo, s16, 192 kb/s
    Stream #0.3[0x81]: Audio: ac3, 48000 Hz, stereo, s16, 192 kb/s
File '/home/user/sg1_d5e1.mp3' already exists. Overwrite ? [y/N] y
Output #0, mp3, to '/home/user/sg1_d5e1.mp3':
  Metadata:
    TSSE            : Lavf53.21.0
    Stream #0.0: Audio: libmp3lame, 48000 Hz, 2 channels, s16, 128 kb/s
Stream mapping:
  Stream #0:1 -> #0:0 (ac3 -> libmp3lame)
Press ctrl-c to stop encoding
Input stream #0:1 frame changed from rate:48000 fmt:s16 ch:6 to rate:48000 fmt:s16 ch:2
incomplete frametime=1606.73 bitrate= 128.0kbits/s   
size=   25184kB time=1611.77 bitrate= 128.0kbits/s   
video:0kB audio:25184kB global headers:0kB muxing overhead 0.000500%
user@desktop ~/test/VIDEO_TS $


I also have the complete libs installed like libdvdcss and libdvdread, ubuntu-restricted-extras and so on.

I do use mint 13 maya. Thanks in advance! :)
"The future is predeterment by those who shape it"
DC80
Level 2
Level 2
 
Posts: 92
Joined: Fri Jan 06, 2012 5:37 am

Linux Mint is funded by ads and donations.
 

Return to Sound, Multimedia, & Codecs

Who is online

Users browsing this forum: No registered users and 4 guests